1

Closed

WMV video files with the following options are not handled well

description

Properties
Video: Windows Media Video 9 720x576 25.00fps 1900kbps [Raw Video 1]
Audio: Windows Media Audio 44100Hz stereo 160kbps [Raw Audio 0]
 
General
Format : Windows Media
File size : 1.42 MiB
Duration : 7s 58ms
Overall bit rate mode : Constant
Overall bit rate : 1 692 Kbps
Maximum Overall bit rate : 2 079 Kbps
Encoded date : UTC 2012-05-05 07:22:31.421
 
Video
ID : 2
Format : VC-1
Format profile : MP
Codec ID : WMV3
Codec ID/Info : Windows Media Video 9
Codec ID/Hint : WMV3
Duration : 7s 40ms
Bit rate mode : Constant
Bit rate : 1 900 Kbps
Width : 720 pixels
Height : 576 pixels
Display aspect ratio : 5:4
Frame rate : 25.000 fps
Standard : PAL
Bit depth : 8 bits
Scan type : Progressive
Compression mode : Lossy
Bits/(Pixel*Frame) : 0.183
Stream size : 1.59 MiB
 
Audio
ID : 1
Format : WMA
Format version : Version 2
Codec ID : 161
Codec ID/Info : Windows Media Audio
Duration : 7s 58ms
Bit rate mode : Constant
Bit rate : 160 Kbps
Channel(s) : 2 channels
Sampling rate : 44.1 KHz
Bit depth : 16 bits
Stream size : 138 KiB (9%)
 
Affected projects: IpCamEmu, StreetWatch
Closed May 5, 2012 at 8:28 PM by DrWeb
WMV adapter replaced with MediaDet adapterFixed in v3

comments

DrWeb wrote May 5, 2012 at 8:29 PM

v4 not v3.

wrote Feb 1, 2013 at 11:17 PM

wrote May 16, 2013 at 4:17 AM